Thread: iTunes, guys.
View Single Post
Old 09-20-2017, 09:01 AM   #106
TheSkeletonMan939
A New Day, A New Headache
 
TheSkeletonMan939's Avatar
 
Join Date: Mar 2011
Location: Over there
Posts: 3,852
Here's a post from earlier with all the specs.

Spoiler:

General
Format : Windows Media
File size : 424 MiB
Duration : 21mn 53s
Overall bit rate mode : Variable
Overall bit rate : 2 707 Kbps
Maximum Overall bit rate : 6 270 Kbps
Encryption : http://www.amazon.com/gp/video/licen...uXAObEyOY40Q==
Encoded date : UTC 2015-02-19 07:02:04.672
WM/ContentDistributor : Amazon.com
Amazon/ASIN : B00UFECWMK
Amazon/Type : Content

Video
ID : 2
Format : VC-1
Format profile : Advanced@L3
Codec ID : WVC1
Codec ID/Hint : Microsoft
Description of the codec : Windows Media Video 9 Advanced Profile
Duration : 21mn 53s
Bit rate mode : Variable
Bit rate : 2 500 Kbps
Width : 640 pixels
Height : 480 pixels
Display aspect ratio : 4:3
Frame rate : 23.976 fps
Color space : YUV
Chroma subsampling : 4:2:0
Bit depth : 8 bits
Scan type : Progressive
Compression mode : Lossy
Bits/(Pixel*Frame) : 0.339
Stream size : 391 MiB (92%)
Encryption : Encrypted

Audio
ID : 1
Format : WMA
Format profile : Pro
Codec ID : 162
Codec ID/Info : Windows Media Audio
Description of the codec : Windows Media Audio 10 Professional - 192 kbps, 48 kHz, 2 channel 24 bit 2-pass VBR
Duration : 21mn 53s
Bit rate mode : Variable
Bit rate : 192 Kbps
Channel(s) : 2 channels
Sampling rate : 48.0 KHz
Bit depth : 24 bits
Stream size : 30.0 MiB (7%)
Encryption : Encrypted



If you have no clue what any of it means, it's 4:3 fullscreen, standard definition, just like the DVDs. Bitrate (i.e. level of "quality") is lower than the DVDs though. Audio quality is the same as the DVDs, which were encoded at 192kbps (which is the lowest you're "allowed" to go if you're distributing media).
__________________
Quote:
Originally Posted by Panda_Kahn_fan View Post
IDW took the OT straw and spun it into gold, while Platinum Dunes took the OT straw and spun it into manure.
TheSkeletonMan939 is offline   Reply With Quote